当前位置:首页 >> 信息与通信 >>

用Nero8将WAV、flac、APE+CUE及其他无损文件刻录成CD音乐光盘的图文教程


用 Nero 将 WAV、flac、APE+CUE 及其他无损文件刻录成 CD 音乐光盘的图文教程 “如何用 Nero 将 WAV(APE)+CUE 及其他无损文件刻录成 CD 音乐光盘”搜索到 的方法有很多,看到那些方法都非常麻烦,操作起来不方便。我根据自己摸索, 做了一个简单易懂的图文教程,拿出来跟大家分享一下。 先了解一下常见无损资源的几种格式(注:*.MDS 是 MEDI

A DESCRIPT OR 镜像文 件,用 Alcohol 120%软件制作;*.ccd 是 CloneCD 的镜像;*.nrg 是 NERO 的镜 像):

说明:这里的“ ?”号代表文件名 (1) ?.APE + ?.CUE 文件 一个 APE 或多个 APE (2) ?.WAV + ?. CUE 文件 一个 WAV 或多个 WAV (3) ?.NRG 文件 (4) ?.ISO +?.CUE 文件 (5) ?.CDR 文件 (6) ?.IMG + ?. CCD + SUB 文件 (7) ?.MDS + ?.MDF 文件 (8) ?.BIN + ?.CUE + ?.SUB 文件 [注:这里以 NERO8 为例加以说明: ★★请注意,CUE 文件和 flac、ape、wav 文件名不要用中文,否则提示错误★★ 例: 我这里以"非听勿扰·极致男声"[WAV+CUE]为例加以说明: 原来文件名是:非听勿扰·极致男声.cue 修改为:CDImage.cue 原来文件名是:非听勿扰·极致男声.wav 修改为:CDImage.wav 与此同时:改好文件名的(CDImage.cue)文件里面的名也要修改否则不可以播 放,用记事本打开就可以修改 步骤: 鼠标右击 CDImage.cue 文件---选择打开方式----再选择记事本 就可以打

开修改了, 还是不会的朋友直接改 CDImage.cue 的后缀名,把 cue 改成 txt 就 可以直接双击打开了,改好后再改回 cue 后缀名就可以 例:打开 cue 后,原来文件里面的名是【红色部分】(后面的歌名部分省略): REM DATE 2011 TITLE "非听勿扰·极致男声 DSD" FILE "非听勿扰·极致男声.wav" WAVE TRACK 01 AUDIO TITLE "陪我看日出(小刚)" FLAGS DCP INDEX 01 00:00:00 TRACK 02 AUDIO TITLE "走天涯(董瑞)" FLAGS DCP INDEX 01 04:15:41

修改为【红色部分】: REM DATE 2011 TITLE "非听勿扰·极致男声 DSD" FILE "CDImage.wav" WAVE TRACK 01 AUDIO TITLE "陪我看日出(小刚)" FLAGS DCP INDEX 01 00:00:00

TRACK 02 AUDIO TITLE "走天涯(董瑞)" FLAGS DCP INDEX 01 04:15:41 改好后测试一下 cue 是不是可以播放相关文件

【注意:不管有无 CUE 文件的 APE、flac 刻录,nero8 都需要下载

下载 nero 直刻 ape-flac http://115.com/file/dp7sqtfl# nero 直刻 ape-flac 插件.rar

安装插件的方法: 为了不损音乐质量,很多音乐爱好者都想把 APE 或 FLAC 格式的音乐直接刻录到 CD 碟片,网上也介绍了很多种方法,其实都行,但有些较为麻烦。觉得还是直 接用 NERO 刻录比较方便,只是要安装插件。

要特别注意的是:插件的位置 NERO 7 与 NERO 8 是不同的。

使用 NERO 7 的朋友,解压附件后,将“nxMyAPE.dll”和“nxMyFLA.dll”直接 复制到文件夹: C:\Program Files\Common Files\Ahead\AudioPlugins 使用 NERO 8 的朋友,解压附件后,将“nxMyAPE.dll”和“nxMyFLA.dll”直接 复制到文件夹: C:\Program Files\Common Files\Nero\AudioPlugins 然后你就可以很方便地用 NERO 将这二种格式的音乐文件直接刻录到 CD,且不降 低音乐品质了。nero 6 同 nero 7 一样使用. 安装好插件后重启 nero 就可以将有 CUE 文件的 wav、flac、APE 刻录成 CD 音乐 光盘了 刻录步骤:(先放入一张空白的光盘) 1、运行 Nero 刻录软件,选择“翻录和刻录”→“复制光盘”

2、软件会自动进入下面这个界面:

2011-6-18 11:41:39 上传 下载附件(100.9 KB) 3、选择左边的第三项“映像、项目、复制”,然后点击右边的“光盘映像或保 存的项目”并打开。[(2)(3)(4)(5)类型的资源直接这样刻

4、打开“光盘映像或保存的项目”后,找到你刚才修改好的 CUE 文件夹

2011-6-18 11:41:41 上传 下载附件(56.62 KB) 5、选择好 cue 文件点打开,软件会自动进入下面这个界面

2011-6-18 11:41:42 上传 下载附件(47.01 KB) 6、打开上图红色框的箭头,可以选择刻录的速度,最好用低速即 8 倍速刻录, 刻录时检测数据打上勾,如图所示:

7、直接点击右下角的刻录按钮就行了 8、如果是没有播放列表 CUE 文件 wav、flac、APE 刻录方法,使用插件可以让 Nero 直接刻录。 运行 Nero 刻录软件,选择“翻录和刻录”→“刻录音频 CD”直 接把文件拖到弹出的界面里面就可以了,也可以点击添加按钮选择添加 ape、 wav、flac 文件直接刻录,如图: 9、(6)(7)(8)类型的文件,先用虚拟光驱软件 Daemon tools 或 Alcohol 52 % 将之虚拟成光盘(Alcohol 52 %是 Alcohol 120 %的免费版,Alcohol 52 %只是 少了 Alcohol 120%的刻录功能,光驱可以虚拟 6 个,推荐使用),然后用 NERO 的复制光盘功能进行刻录即可


相关文章:
用Nero将WAV(APE)+CUE及其他无损文件刻录成CD音乐
用 Nero 将 WAV(APE)+CUE 及其他无损文件刻录成 CD 音乐光 盘的图文教程...最好用低速即 8 倍速刻录, 如图所示: 5、放入空白的刻录光盘,直接点击刻录就...
cd刻录
cd刻录_电脑基础知识_IT/计算机_专业资料。用 Nero 将 WAVflacAPE+CUE 及其他无损文件刻录 成 CD 音乐光盘的图文教程 (2013-02-17 13:41:20) 转载▼ ...
用NERO将APE和FLAC音乐直接刻录到CD的方法
要想刻录到 dvd 可以刻录成数据光盘或者将 ape 转换 成 wav 格式 用 NEROAPEFLAC 音乐直接刻录到 CD 的方法 第一步 安装插件 为了不损音乐质量, ...
flac无损音频文件刻录CD方法
flac无损音频文件刻录CD方法_电脑基础知识_IT/计算机...用 Nero无损 Flac 格式音乐刻录CD 的方法!...用Nero将WAV(APE)、CUE及... 7页 免费 APE-FLAC...
使用Nero将APE(CUE)刻录成CD音乐光盘
用Nero8将WAVflac、AP... 10页 1下载券 用Nero将WAV(APE)、CUE及... 7页 免费 WAV(APE)+CUE及其他无损... 5页 1下载券 Nero直接刻录APE音乐CD 4页...
如何刻录音乐CD光盘——WAV分轨篇(NERO8)(图文)
如何刻录音乐CD光盘——WAV分轨篇(NERO8)(图文)_电脑基础知识_IT/计算机_专业资料。常见的DTS无损音乐格式包括:WAV格式(分轨和整轨)、DTS格式(整轨和分轨)、光盘...
如何把WAV CUE文件刻录成CD
无损音乐 整轨 wav+cue 文件刻录 CD,当然无损的还有 apeflac 等格式,刻录也...用Nero8将WAVflac、AP... 10页 免费 APE+CUE刻录CD教程 8页 免费 使用Ner...
如何将APE及FLAC格式文件刻录成CD
如何将APE及FLAC格式文件刻录成CD_计算机软件及应用_...===下面只讨论音频的无损压缩=== 关于 MP3、WMA ...用Nero8将WAVflac、AP... 10页 免费 如何把APE...
nero8正确刻录ape和flac的方法
nero8正确刻录apeflac的方法_电脑基础知识_IT/计算机_专业资料。nero8 正确刻录 apeflac 的方法 本人比较喜欢在网络上收藏音乐质量较好的文件,并将其刻成碟...
无损WAV歌曲刻录成CD光盘
WAV 歌曲刻录成 CD 光盘把下载好的 wav 格式歌曲拖到 Foobar2000 软件中 点右键选择转换 选最底下的三个小点 点确认 找到整轨后的音乐文件 找到 CUE 文件点...
更多相关标签: